#TITLE:Apple Is A;
#SUBTITLE:;
#ARTIST:T-Ara;
#TITLETRANSLIT:Apple Is A;
#SUBTITLETRANSLIT:;
#ARTISTTRANSLIT:T-Ara;
#CREDIT:;
#BANNER:Apple Is A-bn.png;
#BACKGROUND:Apple Is A-bg.png;
#LYRICSPATH:;
#CDTITLE:Apple Is A-cd.png;
#MUSIC:Apple Is A.mp3;
#OFFSET:3.230;
#SAMPLESTART:127.040;
#SAMPLELENGTH:20.000;
#SELECTABLE:YES;
#DISPLAYBPM:136.000;
#BPMS:0.000=68.000,11.000=34.020,12.000=136.000,120.000=34.000,121.000=136.000,277.000=34.000,278.000=136.000;
#STOPS:;
#BGCHANGES:;
// cache tags:
#FIRSTBEAT:4.000;
#LASTBEAT:412.000;
#SONGFILENAME:Songs/Music V.I.P ^_^/Apple Is A/Apple Is A.sm;
#HASMUSIC:1;
#HASBANNER:1;
#MUSICLENGTH:190.029;
// end cache tags

//---------------dance-single - Thu Bay , 6-2-2010----------------
#NOTES:
     dance-single:
     Thu Bay , 6-2-2010:
     Hard:
     19:
     1.000,1.000,1.000,0.658,0.082,794.000,504.000,125.000,0.000,206.000:
0000
0000
0000
0000
,
1000
0100
0010
0001
1200
0000
0000
0000
2301
0100
0010
0001
3120
0000
0000
0000
,
1032
0000
0100
0000
1000
0000
0010
0000
0213
0000
0000
0000
0001
0000
0000
0000
0321
0000
0000
0000
1000
0000
0000
0000
2130
0000
0100
0000
0001
0010
0100
0001
,
3120
1000
1032
0010
2103
0010
3210
0011
,
0321
1100
1032
0010
1203
0010
2301
0100
,
3012
0100
0123
1000
1230
0001
2301
0101
,
3120
1100
1100
0000
1031
0110
1001
0110
,
1002
0010
1100
0010
1103
0011
1100
0011
,
2100
0001
0011
0100
3011
1100
0011
1100
,
0012
1000
1123
0001
1230
0001
2311
0100
,
3120
0001
1100
0001
1031
0110
1001
0110
,
1001
0001
1100
0001
0110
0010
1001
0110
,
0010
0110
0110
0100
0012
1000
1100
0010
,
2103
0001
3021
1001
1230
1001
0312
1010
,
2103
0001
0011
0100
0001
0100
0011
0100
,
3011
0000
1001
0000
0001
1100
1001
0110
,
1010
0101
1000
1001
1000
0011
1000
1001
,
0010
0100
0010
0100
0010
0110
0011
0110
,
1100
0110
0100
0110
0100
0110
1100
0011
,
1001
0001
1100
0001
1000
0001
1100
0001
,
0001
1000
0011
1000
0001
1000
0011
1000
,
0001
1000
1001
1000
0001
1000
1001
1000
,
0012
1000
0123
1000
1230
0001
2301
0100
,
3110
0010
0110
0000
1001
0110
1001
0110
,
1001
1000
0011
1000
1010
0101
1010
0101
,
1001
1000
0011
1000
1001
0110
1001
0110
,
1001
0001
1100
0001
0010
0110
1001
0110
,
0012
1010
2103
0101
3021
1001
1230
1001
,
0312
1010
2103
0101
3021
0101
1031
0210
,
1002
0010
1010
0010
1000
0010
1010
0010
,
0300
0000
0000
0000
0113
0110
1100
0011
0110
0000
0000
0000
0100
0000
0000
0000
1010
0000
0000
0000
0100
0000
0000
0000
1010
0000
0000
0000
0101
0000
0000
0000
,
1010
1100
1100
0001
1010
0010
0101
1010
,
0101
1010
0210
1000
2310
0001
3120
1000
,
0132
0010
2013
0010
0110
0001
3011
0101
,
1010
0101
1010
0010
1100
0001
0101
0100
,
1001
1001
1000
0110
0110
1000
0101
0011
,
0010
1100
0201
1000
0321
1001
2130
0011
,
3120
1100
1032
1010
1100
0110
1100
0110
,
1013
1010
0120
1000
0101
1000
1130
0011
,
1010
1100
2010
0100
0011
0100
3110
1001
,
0110
1001
0021
0001
2130
0001
3201
1000
,
0321
0001
2130
0001
0101
0001
3011
1100
,
0011
1100
0110
0010
0110
0100
0110
0000
,
0101
1010
0010
1010
0101
0100
0011
1000
,
1010
0001
1020
0100
0132
1010
0123
1100
,
2031
0101
3021
1100
0100
1100
1031
0110
,
1001
0000
0110
0000
0011
0000
1010
0000
0101
0000
0010
1000
0001
0000
0110
0000
,
1100
0000
1100
0000
0000
0000
0001
0100
0010
0000
1001
0000
0110
0000
1000
0100
,
0011
0011
0000
1100
0110
1001
0110
0011
,
1010
1100
0011
0110
1001
1010
0110
1100
,
0011
0000
0000
0000
1001
0000
0100
1000
0010
0000
1100
0000
1010
0000
1001
0000
,
0110
0000
0110
0000
0000
0000
0001
0100
1000
0000
0001
0010
0100
0000
0010
1000
,
0101
0000
0101
0000
0000
0000
1000
0100
0010
0000
1001
0000
0110
0000
1100
0000
,
0011
1000
0100
0001
1010
0100
0001
0000
,
0101
0000
1010
0000
1001
0000
0010
0101
,
0110
1010
0101
0011
1000
1100
1010
0101
,
0110
1001
0100
1000
0100
1000
0100
0101
,
1001
1100
0011
1001
0001
1001
0101
1001
,
0011
1100
0110
0100
1010
0010
0100
0010
,
0011
0100
0100
0010
1100
0100
0010
0100
,
0101
0010
0100
0010
1010
0100
0010
0100
,
0101
0010
0021
0001
0132
0100
2013
0001
,
3201
0010
0311
0001
0011
0000
0101
1010
,
0101
1010
0101
0001
1100
0001
0110
1001
,
0110
1001
1010
0010
1100
0100
0101
1010
,
0101
1010
0101
0100
0110
0001
0010
0110
,
1001
0110
1020
0101
1230
1001
0312
1010
,
0213
1001
2301
0011
3120
1001
0231
0011
,
1301
0210
1002
0010
1010
0010
1000
0010
,
1010
0000
0000
0000
0010
0000
0000
0000
0300
0000
0000
0000
0113
0110
1100
0011
0110
0000
0000
0000
0010
0000
0000
0000
1100
0000
0000
0000
0001
0000
0000
0000
,
1001
0110
1001
0110
0110
0010
1100
0001
,
1010
0101
1010
0101
2100
0001
3021
0100
,
1230
0000
0001
0000
0312
0000
1000
0000
0123
0000
1100
0000
1100
0000
0001
0001
,
1031
0110
1001
0110
1001
0001
1001
1000
,
0110
0010
0100
0110
0001
1001
1100
0001
,
0011
1001
1000
1001
2100
0001
3012
1010
,
1023
1001
1230
1001
2301
0101
0011
0101
,
3101
1010
0101
1010
0120
0001
1100
0001
,
1031
0110
1001
0110
0210
1000
0011
1000
,
1310
0101
1010
0101
2100
0001
3120
0001
,
1230
0001
0312
1000
0123
1000
1001
1000
,
0131
1010
0101
1010
1001
0001
1001
1000
,
1001
0000
1001
0110
0100
0110
1001
1000
,
1001
0001
1100
0001
0012
1000
2103
0101
,
3210
0011
0321
1001
1230
0001
0011
1000
,
1301
0110
1001
0110
0012
1000
0000
1000
,
1013
0101
1010
0101
2100
0001
0000
0001
,
3101
1010
0101
1010
0021
1000
1230
0001
,
2301
0100
3012
1000
0223
1000
0000
1000
,
0301
1000
0001
1000
1031
0000
1001
0000
,
1001
0000
1000
1001
0001
1001
1100
0001
,
0110
0100
0011
1000
0012
0000
2103
0101
,
3201
1001
0321
1001
1032
0010
1100
0010
,
1013
0101
1010
0101
0120
0000
1000
0000
,
2130
0001
0010
0100
3012
0000
0100
0010
,
1203
0010
0001
1000
0321
0000
1000
0000
,
2130
0000
0001
3000
0210
1001
0310
0110
,
0010
0000
0110
0000
1001
0000
0110
0000
1001
0000
0010
0100
0000
0010
0001
0000
,
1000
0000
0001
0000
1010
0000
0010
0000
1001
0000
0100
0001
0000
0100
1000
0000
,
0001
0000
1000
0000
0101
0000
0001
0000
1010
0000
0100
1000
0000
0010
0100
0000
,
0110
1001
0110
0110
0221
1000
0000
0001
,
1000
0000
0300
0000
,
0000
0000
0000
0000
,
0030
0000
0000
0000
;
